Torrents
Documentales842
Películas11256
Películas HD2068
Series1961
  Episodios22513
Series HD244
  Episodios2743
Juegos2689
  PC1736
Variados1521
  Deportes36
  Programas592
  Videoclips102
  Otros722
Música MP3 3525
Total Torrents57258
mejor torrent

Información
Esta web no contiene ningún tipo de fichero almacenado.

Todos los archivos se comparten mediante el BitTorrent, un programa P2P de intercambio entre usuarios.

Noticias
Malicioso Subtítulos Amenazan Kodi, VLC y Palomitas de maíz de Tiempo de los Usuarios, Advierten los Investigadores
Millones de personas corren el riesgo de que sus dispositivos y sistemas de peligro por parte de los subtítulos, Check Point investigadores revelaron el día de hoy. La amenaza proviene de un indocumentado anteriormente vulnerabilidad que afecta a los usuarios del popular software de streaming, incluyendo Kodi, Palomitas de maíz-Tiempo, y VLC. Los desarrolladores de las aplicaciones ya han aplicado correcciones o lo hará pronto.

No, ExtraTorrent No Ha Sido Resucitado
pocos días después de que ExtraTorrent cerró sus puertas, en varios sitios apareció reclamando ser el popular sitio de torrents resucitado. Algunos incluso van tan lejos como afirmar que son operados por los empleados antiguos, que fue rápidamente recogido por la prensa. En realidad, sin embargo, la amplia cobertura de imitación parece ser un Pirata Bay espejo con un ExtraTorrent de la piel.

Presunto KickassTorrents Fundador puesto en libertad bajo Fianza
Artem Vaulin, el presunto propietario de KickassTorrents, ha sido liberado de la cárcel en libertad bajo fianza. El ucraniano será capaz de aguardar a que el procedimiento de extradición como un relativamente hombre libre. Actualmente vive en un apartamento alquilado, donde se reunió con su esposa y su hijo.

Malicioso Subtítulos Amenazan Kodi, VLC y Palomitas de maíz de Tiempo de los Usuarios, Advierten los Investigadores
Millones de personas corren el riesgo de que sus dispositivos y sistemas de peligro por parte de los subtítulos, Check Point investigadores revelaron el día de hoy. La amenaza proviene de un indocumentado anteriormente vulnerabilidad que afecta a los usuarios del popular software de streaming, incluyendo Kodi, Palomitas de maíz-Tiempo, y VLC. Los desarrolladores de las aplicaciones ya han aplicado correcciones o lo hará pronto.

No, ExtraTorrent No Ha Sido Resucitado
pocos días después de que ExtraTorrent cerró sus puertas, en varios sitios apareció reclamando ser el popular sitio de torrents resucitado. Algunos incluso van tan lejos como afirmar que son operados por los empleados antiguos, que fue rápidamente recogido por la prensa. En realidad, sin embargo, la amplia cobertura de imitación parece ser un Pirata Bay espejo con un ExtraTorrent de la piel.


Lo más buscado
Better Call Saul
watch dogs
sade
ROBE
civilization
criadas y malvadas
Caifanes
vivid
bunbury
Gotham
TWO STEPS FROM
amaia montero
pesadilla
Metallica
los 33
kylie minogue
sims 3
empire
Supergirl
KEVIN JOHANSEN
Ricardo Arjona
estopa
efecto mariposa
VIS A VIS
ray donovan
the good wife
deadwood
cronica de una muerte anunciada
vikings
steve jobs



Descarga la última versión de uTorrent y baja a la máxima velocidad:

Lana Del Rey

- Summertime Sadness
Total Descargas:  1.350 En Mayo:  1.350

Fecha:  2016-10-08



Torrent:      Descargar         Tamaño:  49,89 MB
Descripción:

General Complete name : Lana Del Rey - Summertime Sadness (1080p)
x264 [VX] [P2PDL].mp4 Format : MPEG-4 Format profile : Base Media /
Version 2 Codec ID : mp42 File size : 45.0 MiB Duration : 4mn 42s Video
ID : 1 Format : AVC Codec ID/Info : Advanced Video Coding Duration :
4mn 42s Bit rate mode : Variable Bit rate : 1 200 Kbps Width : 1 920
pixels Height : 1 080 pixels Display aspect ratio : 16:9 Frame rate mode :
Constant Frame rate : 25.000 fps Color space : YUV Chroma subsampling
: 4:2:0 Bit depth : 8 bits Scan type : Progressive Bits/(Pixel*Frame) :
0.023 Stream size : 40.5 MiB (90%) Writing library : x264 core 128 Audio
ID : 2 Format : AAC Duration : 4mn 42s Bit rate mode : Variable Bit rate :
128 Kbps Channel(s) : 2 channels Channel positions : Front: L R Sampling
rate : 44.1 KHz Stream size : 4.32 MiB (10%) Subtitles : No

Información adicional




Volver al índice de Variados







Datos legales


18:18:57
computer