Torrents
Documentales842
Películas11256
Películas HD2068
Series1961
  Episodios22513
Series HD244
  Episodios2743
Juegos2689
  PC1736
Variados1521
  Deportes36
  Programas592
  Videoclips102
  Otros722
Música MP3 3525
Total Torrents57258
mejor torrent

Información
Esta web no contiene ningún tipo de fichero almacenado.

Todos los archivos se comparten mediante el BitTorrent, un programa P2P de intercambio entre usuarios.

Noticias
Bélgica Quiere a la lista Negra de Sitios Piratas Y Apropiarse de Su Tráfico
Proyecto de propuestas de Bélgica, y el Vice Primer Ministro podría ver el país tomando una línea más dura contra los sitios piratas. Además de la construcción de una lista negra de sitios infractores y asociados proxies, Kris Peeters se imagina a los proveedores locales de servicios de desviar el tráfico de Internet, lejos de sitios piratas y hacia legítimos de los orígenes de contenido.

Bélgica Quiere a la lista Negra de Sitios Piratas Y Apropiarse de Su Tráfico
Proyecto de propuestas de Bélgica, y el Vice Primer Ministro podría ver el país tomando una línea más dura contra los sitios piratas. Además de la construcción de una lista negra de sitios infractores y asociados proxies, Kris Peeters se imagina a los proveedores locales de servicios de desviar el tráfico de Internet, lejos de sitios piratas y hacia legítimos de los orígenes de contenido.

Bélgica Quiere a la lista Negra de Sitios Piratas Y Apropiarse de Su Tráfico
Proyecto de propuestas de Bélgica, y el Vice Primer Ministro podría ver el país tomando una línea más dura contra los sitios piratas. Además de la construcción de una lista negra de sitios infractores y asociados proxies, Kris Peeters se imagina a los proveedores locales de servicios de desviar el tráfico de Internet, lejos de sitios piratas y hacia legítimos de los orígenes de contenido.

Bélgica Quiere a la lista Negra de Sitios Piratas Y Apropiarse de Su Tráfico
Proyecto de propuestas de Bélgica, y el Vice Primer Ministro podría ver el país tomando una línea más dura contra los sitios piratas. Además de la construcción de una lista negra de sitios infractores y asociados proxies, Kris Peeters se imagina a los proveedores locales de servicios de desviar el tráfico de Internet, lejos de sitios piratas y hacia legítimos de los orígenes de contenido.

Bélgica Quiere a la lista Negra de Sitios Piratas Y Apropiarse de Su Tráfico
Proyecto de propuestas de Bélgica, y el Vice Primer Ministro podría ver el país tomando una línea más dura contra los sitios piratas. Además de la construcción de una lista negra de sitios infractores y asociados proxies, Kris Peeters se imagina a los proveedores locales de servicios de desviar el tráfico de Internet, lejos de sitios piratas y hacia legítimos de los orígenes de contenido.


Lo más buscado
american outlaws
sade
life
El mentalista
millenium
millennium
monstruos university
big bang theory
Mujeres Desesperadas
confesiones de una compradora compulsiva
boardwalk empire
eso
robbie williams
codigo da vinci
la cenicienta
guardianes de la galaxia
Batman: La LEGO película
2017
grease
accion criminal
gotham
TORREN
Camaron
dos canguros muy maduros
DEADPOOL
el club de los poetas muertos
Truman
luis fonsi
sabina
foster



Descarga la última versión de uTorrent y baja a la máxima velocidad:

Lana Del Rey

- Summertime Sadness
Total Descargas:  1.589 En Septiembre:  1.589

Fecha:  2016-10-08



Torrent:      Descargar         Tamaño:  49,89 MB
Descripción:

General Complete name : Lana Del Rey - Summertime Sadness (1080p)
x264 [VX] [P2PDL].mp4 Format : MPEG-4 Format profile : Base Media /
Version 2 Codec ID : mp42 File size : 45.0 MiB Duration : 4mn 42s Video
ID : 1 Format : AVC Codec ID/Info : Advanced Video Coding Duration :
4mn 42s Bit rate mode : Variable Bit rate : 1 200 Kbps Width : 1 920
pixels Height : 1 080 pixels Display aspect ratio : 16:9 Frame rate mode :
Constant Frame rate : 25.000 fps Color space : YUV Chroma subsampling
: 4:2:0 Bit depth : 8 bits Scan type : Progressive Bits/(Pixel*Frame) :
0.023 Stream size : 40.5 MiB (90%) Writing library : x264 core 128 Audio
ID : 2 Format : AAC Duration : 4mn 42s Bit rate mode : Variable Bit rate :
128 Kbps Channel(s) : 2 channels Channel positions : Front: L R Sampling
rate : 44.1 KHz Stream size : 4.32 MiB (10%) Subtitles : No

Información adicional




Volver al índice de Variados







Datos legales


06:15:18
computer