Mejortorrent   -   Ayuda   -   Contacto   -   Últimos Torrents

Torrents
Documentales842
Películas11256
Películas HD2068
Series1961
  Episodios22513
Series HD244
  Episodios2743
Juegos2689
  PC1736
Variados1521
  Deportes36
  Programas592
  Videoclips102
  Otros722
Música MP3 3525
Total Torrents57258
mejor torrent

Información
Esta web no contiene ningún tipo de fichero almacenado.

Todos los archivos se comparten mediante el BitTorrent, un programa P2P de intercambio entre usuarios.

Noticias
"No vamos a Bloquear the Pirate Bay, la" sueca de Telecomunicaciones Gigante Dice
la semana Pasada la histórica decisión de obligar a un sueco ISP para bloquear The Pirate Bay no se extendió rápidamente, a pesar de los derechos de autor de los titulares de los deseos. El gigante de las telecomunicaciones Telia dice que la regla no se aplica a ellos, por lo que la conectividad con el sitio continuará a menos que un tribunal ordene lo contrario. Titulares de derechos de autor están evaluando sus opciones.

Tribunal: Alojamiento de Un Sitio Pirata no la Igualdad de Infracción de derechos de Autor
Una Corte Federal en California dictaminó que el Firme no es automáticamente responsable por el recibimiento de un presunto pirata sitio web. En un intento de fin de favorecer la sede en Chicago, el proveedor de hosting, el Juez Wu no ve pruebas suficientes para apoyar una secundaria de la demanda de responsabilidad.

"No vamos a Bloquear the Pirate Bay, la" sueca de Telecomunicaciones Gigante Dice
la semana Pasada la histórica decisión de obligar a un sueco ISP para bloquear The Pirate Bay no se extendió rápidamente, a pesar de los derechos de autor de los titulares de los deseos. El gigante de las telecomunicaciones Telia dice que la regla no se aplica a ellos, por lo que la conectividad con el sitio continuará a menos que un tribunal ordene lo contrario. Titulares de derechos de autor están evaluando sus opciones.

Tribunal: Alojamiento de Un Sitio Pirata no la Igualdad de Infracción de derechos de Autor
Una Corte Federal en California dictaminó que el Firme no es automáticamente responsable por el recibimiento de un presunto pirata sitio web. En un intento de fin de favorecer la sede en Chicago, el proveedor de hosting, el Juez Wu no ve pruebas suficientes para apoyar una secundaria de la demanda de responsabilidad.

Kim Dotcom Extradición a seguir Adelante, Pero No por Motivos de derechos de Autor
La Nueva Zelanda Alto Tribunal dictaminó hoy que Kim Dotcom puede ser extraditado a los estados unidos, pero no será por motivos de derechos de autor. Después de meses de deliberación, la Justicia Gilbert Murray estuvo de acuerdo con el Gobierno de estados unidos, posición que este es un caso de fraude en su núcleo, un delito que dé lugar a extradición. Dotcom dice que va a luchar.


Lo más buscado
the good wife
LOS SIMPSON
CALVIN HARRIS
airbag
OBJETIVO: LONDRES
the night of
up all night
infantil
farcry 4
ROBE
lana del rey
Blindspot
eros rama
one direction
silvio
BOB DYLAN
punk
barro
Nicki Minaj
watch dogs
alejandro fernandez
deadpool
better call saul
iron maiden
Nashville
Wallander
izombie
THE WIRE
mascotas
phil collins



Descarga la última versión de uTorrent y baja a la máxima velocidad:

Lana Del Rey

- Summertime Sadness
Total Descargas:  1.154 En Febrero:  1.154

Fecha:  2016-10-08



Torrent:      Descargar         Tamaño:  49,89 MB
Descripción:

General Complete name : Lana Del Rey - Summertime Sadness (1080p)
x264 [VX] [P2PDL].mp4 Format : MPEG-4 Format profile : Base Media /
Version 2 Codec ID : mp42 File size : 45.0 MiB Duration : 4mn 42s Video
ID : 1 Format : AVC Codec ID/Info : Advanced Video Coding Duration :
4mn 42s Bit rate mode : Variable Bit rate : 1 200 Kbps Width : 1 920
pixels Height : 1 080 pixels Display aspect ratio : 16:9 Frame rate mode :
Constant Frame rate : 25.000 fps Color space : YUV Chroma subsampling
: 4:2:0 Bit depth : 8 bits Scan type : Progressive Bits/(Pixel*Frame) :
0.023 Stream size : 40.5 MiB (90%) Writing library : x264 core 128 Audio
ID : 2 Format : AAC Duration : 4mn 42s Bit rate mode : Variable Bit rate :
128 Kbps Channel(s) : 2 channels Channel positions : Front: L R Sampling
rate : 44.1 KHz Stream size : 4.32 MiB (10%) Subtitles : No

Información adicional




Volver al índice de Variados







Datos legales


22:17:57
computer